Want to win a PS4? Go Premium and enter to win our High-Tech Treats giveaway. Enter to Win

x
?
Solved

*** MEGA-CD ISO+CUE+WAV(S) TO ISO?

Posted on 2004-10-27
1
Medium Priority
?
2,575 Views
Last Modified: 2011-10-03
I hav several Sega Mega-CD Games in the format:

ISO + Cue sheet + Mp3(s) (converted to Wav(s))


some don't have a Cue sheet.


I want to know exacly how to convert them to an ISO playable with Gens.



What would I need to change here:

FILE "Capitan Tsubasa.bin" BINARY
  TRACK 01 MODE1/2352
    INDEX 01 00:00:00
FILE "Tsubasa 02.WAV" WAVE
  TRACK 02 AUDIO
    PREGAP 00:03:00
    INDEX 01 00:00:00
FILE "Tsubasa 03.WAV" WAVE
  TRACK 03 AUDIO
    INDEX 01 00:00:00



I've tried converting to ISO to  a BIN (trying to add audio to ISO) in UltraISO then changing the Cue sheet as above and converting back to an ISO but ISO size stays the same.
0
Comment
Question by:Serotonin_X_Infinite
[X]
Welcome to Experts Exchange

Add your voice to the tech community where 5M+ people just like you are talking about what matters.

  • Help others & share knowledge
  • Earn cash & points
  • Learn & ask questions
1 Comment
 
LVL 8

Accepted Solution

by:
Wojciech Duda earned 2000 total points
ID: 12419609
Well, if you have the BIN and the WAV files just burn using the CUE file - burning software will read the CUE file and automatically create a CD with the data from the BIN and the two audio tracks (as in the above example). I suggest using Alcohol 120 % software for burning, but that's personal preference.
0

Featured Post

Tech or Treat!

Submit an article about your scariest tech experience—and the solution—and you’ll be automatically entered to win one of 4 fantastic tech gadgets.

Question has a verified solution.

If you are experiencing a similar issue, please ask a related question

Curious about the latest ransomware attack? Check out our timeline of events surrounding the spread of this new virus along with tips on how to mitigate the damage.
Have you ever run into that annoying problem where the computer won't boot?  Wouldn't it be great if you had a tool that would make that disk boot again?  I have found one tool that works more often than not ...
Video by: Tony
This video teaches viewers how to export a project from Adobe Premiere Pro and the various file types involved.
In a question here at Experts Exchange (https://www.experts-exchange.com/questions/29062564/Adobe-acrobat-reader-DC.html), a member asked how to create a signature in Adobe Acrobat Reader DC (the free Reader product, not the paid, full Acrobat produ…

597 members asked questions and received personalized solutions in the past 7 days.

Join the community of 500,000 technology professionals and ask your questions.

Join & Ask a Question