?
Solved

*** MEGA-CD ISO+CUE+WAV(S) TO ISO?

Posted on 2004-10-27
1
Medium Priority
?
2,648 Views
Last Modified: 2011-10-03
I hav several Sega Mega-CD Games in the format:

ISO + Cue sheet + Mp3(s) (converted to Wav(s))


some don't have a Cue sheet.


I want to know exacly how to convert them to an ISO playable with Gens.



What would I need to change here:

FILE "Capitan Tsubasa.bin" BINARY
  TRACK 01 MODE1/2352
    INDEX 01 00:00:00
FILE "Tsubasa 02.WAV" WAVE
  TRACK 02 AUDIO
    PREGAP 00:03:00
    INDEX 01 00:00:00
FILE "Tsubasa 03.WAV" WAVE
  TRACK 03 AUDIO
    INDEX 01 00:00:00



I've tried converting to ISO to  a BIN (trying to add audio to ISO) in UltraISO then changing the Cue sheet as above and converting back to an ISO but ISO size stays the same.
0
Comment
Question by:Serotonin_X_Infinite
1 Comment
 
LVL 8

Accepted Solution

by:
Wojciech Duda earned 2000 total points
ID: 12419609
Well, if you have the BIN and the WAV files just burn using the CUE file - burning software will read the CUE file and automatically create a CD with the data from the BIN and the two audio tracks (as in the above example). I suggest using Alcohol 120 % software for burning, but that's personal preference.
0

Featured Post

2018 Annual Membership Survey

Here at Experts Exchange, we strive to give members the best experience. Help us improve the site by taking this survey today! (Bonus: Be entered to win a great tech prize for participating!)

Question has a verified solution.

If you are experiencing a similar issue, please ask a related question

Conducting a customer service survey used to be as straightforward as sending a template email out using checkboxes and numerical rating systems to measure satisfaction.
There’s hardly a doubt that Business Communication is indispensable for both enterprises and small businesses, and if there is an email system outage owing to Exchange server failure, it definitely results in loss of productivity.
Video by: Tony
This video teaches viewers how to export a project from Adobe Premiere Pro and the various file types involved.
Is your OST file inaccessible, Need to transfer OST file from one computer to another? Want to convert OST file to PST? If the answer to any of the above question is yes, then look no further. With the help of Stellar OST to PST Converter, you can e…

589 members asked questions and received personalized solutions in the past 7 days.

Join the community of 500,000 technology professionals and ask your questions.

Join & Ask a Question