Solved

*** MEGA-CD ISO+CUE+WAV(S) TO ISO?

Posted on 2004-10-27
2,455 Views
Last Modified: 2011-10-03
I hav several Sega Mega-CD Games in the format:

ISO + Cue sheet + Mp3(s) (converted to Wav(s))


some don't have a Cue sheet.


I want to know exacly how to convert them to an ISO playable with Gens.



What would I need to change here:

FILE "Capitan Tsubasa.bin" BINARY
  TRACK 01 MODE1/2352
    INDEX 01 00:00:00
FILE "Tsubasa 02.WAV" WAVE
  TRACK 02 AUDIO
    PREGAP 00:03:00
    INDEX 01 00:00:00
FILE "Tsubasa 03.WAV" WAVE
  TRACK 03 AUDIO
    INDEX 01 00:00:00



I've tried converting to ISO to  a BIN (trying to add audio to ISO) in UltraISO then changing the Cue sheet as above and converting back to an ISO but ISO size stays the same.
0
Question by:Serotonin_X_Infinite
    1 Comment
     
    LVL 8

    Accepted Solution

    by:
    Well, if you have the BIN and the WAV files just burn using the CUE file - burning software will read the CUE file and automatically create a CD with the data from the BIN and the two audio tracks (as in the above example). I suggest using Alcohol 120 % software for burning, but that's personal preference.
    0

    Write Comment

    Please enter a first name

    Please enter a last name

    We will never share this with anyone.

    Featured Post

    Lean Six Sigma Project Manager Certification

    There are many schools of thought around successful project management, but few as highly regarded as the Six Sigma and Lean methods. With 37 hours of learning, this training will explain concrete processes for increasing efficiency and limiting wasted time and effort.

    This article covers general Notes 8.5 troubleshooting information including recreating the Notes\Data folder.
    Let’s list some of the technologies that enable smooth teleworking. 
    The viewer will learn common shortcuts with easy ways to remember them. The viewer will then learn where to find all of the keyboard shortcuts, how to create/change them, and how to speed up their workflow.
    This video will demonstrate how to find the puppet warp tool from the edit menu and where to put the points to edit.

    846 members asked questions and received personalized solutions in the past 7 days.

    Join the community of 500,000 technology professionals and ask your questions.

    Join & Ask a Question

    Need Help in Real-Time?

    Connect with top rated Experts

    7 Experts available now in Live!

    Get 1:1 Help Now