• Status: Solved
  • Priority: Medium
  • Security: Public
  • Views: 2749
  • Last Modified:

*** MEGA-CD ISO+CUE+WAV(S) TO ISO?

I hav several Sega Mega-CD Games in the format:

ISO + Cue sheet + Mp3(s) (converted to Wav(s))


some don't have a Cue sheet.


I want to know exacly how to convert them to an ISO playable with Gens.



What would I need to change here:

FILE "Capitan Tsubasa.bin" BINARY
  TRACK 01 MODE1/2352
    INDEX 01 00:00:00
FILE "Tsubasa 02.WAV" WAVE
  TRACK 02 AUDIO
    PREGAP 00:03:00
    INDEX 01 00:00:00
FILE "Tsubasa 03.WAV" WAVE
  TRACK 03 AUDIO
    INDEX 01 00:00:00



I've tried converting to ISO to  a BIN (trying to add audio to ISO) in UltraISO then changing the Cue sheet as above and converting back to an ISO but ISO size stays the same.
0
Serotonin_X_Infinite
Asked:
Serotonin_X_Infinite
1 Solution
 
Wojciech DudaCommented:
Well, if you have the BIN and the WAV files just burn using the CUE file - burning software will read the CUE file and automatically create a CD with the data from the BIN and the two audio tracks (as in the above example). I suggest using Alcohol 120 % software for burning, but that's personal preference.
0
Question has a verified solution.

Are you are experiencing a similar issue? Get a personalized answer when you ask a related question.

Have a better answer? Share it in a comment.

Join & Write a Comment

Featured Post

Get expert help—faster!

Need expert help—fast? Use the Help Bell for personalized assistance getting answers to your important questions.

Tackle projects and never again get stuck behind a technical roadblock.
Join Now